<?xml version="1.0" standalone="no"?>
<!DOCTYPE svg PUBLIC "-//W3C//DTD SVG 1.1//EN" "http://www.w3.org/Graphics/SVG/1.1/DTD/svg11.dtd" >
<svg xmlns="http://www.w3.org/2000/svg">
<metadata>Generated by IcoMoon</metadata>
<defs>
<font id="allicons" horiz-adv-x="1024">
<font-face units-per-em="1024" ascent="960" descent="-64" />
<missing-glyph horiz-adv-x="1024" />
<glyph unicode="&#x20;" horiz-adv-x="512" d="" />
<glyph unicode="&#xe900;" glyph-name="download" horiz-adv-x="1078" d="M1059.754 278.544c-12.078 12.089-26.77 18.136-44.037 18.136h-300.576l-88.096-88.096c-25.050-24.177-54.412-36.271-88.096-36.271-33.677 0-63.050 12.078-88.096 36.271l-87.45 88.096h-301.217c-17.271 0-31.953-6.058-44.048-18.136-12.093-12.089-18.137-26.775-18.137-44.059v-207.279c0-17.273 6.044-31.954 18.137-44.048 12.093-12.089 26.775-18.13 44.048-18.13h953.531c17.268 0 31.96 6.042 44.043 18.13 12.094 12.094 18.136 26.775 18.136 44.048v207.279c0 17.284-6.042 31.97-18.141 44.059zM816.856 60.244c-8.219-8.208-17.936-12.304-29.168-12.304-11.226 0-20.933 4.096-29.146 12.304-8.203 8.208-12.299 17.92-12.299 29.141 0 11.226 4.096 20.954 12.299 29.152 8.214 8.214 17.92 12.32 29.146 12.32 11.232 0 20.949-4.107 29.168-12.32 8.197-8.192 12.299-17.92 12.299-29.152 0-11.221-4.101-20.933-12.299-29.141zM982.674 60.244c-8.203-8.208-17.92-12.304-29.152-12.304-11.226 0-20.938 4.096-29.146 12.304-8.197 8.208-12.299 17.92-12.299 29.141 0 11.226 4.101 20.954 12.299 29.152 8.203 8.214 17.915 12.32 29.146 12.32 11.226 0 20.949-4.107 29.152-12.32 8.203-8.192 12.31-17.92 12.31-29.152 0-11.221-4.096-20.933-12.31-29.141zM509.796 267.517c7.778-8.197 17.493-12.299 29.148-12.299 11.666 0 21.367 4.101 29.149 12.299l290.207 290.208c13.382 12.522 16.411 27.639 9.065 45.346-7.33 16.837-20.070 25.257-38.217 25.266h-165.834v290.203c0 11.226-4.107 20.944-12.299 29.148-8.214 8.207-17.925 12.311-29.146 12.311h-165.848c-11.222 0-20.94-4.104-29.148-12.311-8.202-8.204-12.306-17.92-12.306-29.148v-290.206h-165.83c-18.146 0-30.88-8.429-38.222-25.266-7.337-17.7-4.318-32.824 9.074-45.346l290.208-290.206z" />
<glyph unicode="&#xe901;" glyph-name="animals" d="M342.325 670.794h343.576c-19.004 116.445-85.133 168.1-197.461 160.471-83.682-5.628-144.663-71.793-146.115-160.471zM168.273 90.475c-5.095-9.455-10.188-18.906-15.756-27.917 30.886-27.639 56.757-22.263 82.892 8.631 17.371 20.574 36.431 39.808 53.025 56.55 6.606 6.669 12.821 12.937 18.383 18.743 60.189-22.263 113.25-41.899 176.737-65.412v459.022h60.058v-457.524c35.806 12.723 68.412 24.294 101.845 36.16 23.757 8.427 47.927 17.007 73.971 26.253 6.003-6.366 12.471-13.137 19.234-20.224 17.028-17.835 35.959-37.666 54.285-58.074 25.212-28.015 50.816-28.89 78.537-4.25-8.085 10.569-16.205 21.107-24.32 31.646-20.501 26.624-40.998 53.235-60.949 80.294-2.082 2.795-4.437 5.734-6.852 8.747-9.694 12.083-20.39 25.421-18.492 36.032 5.329 30.383 14.635 60.049 24.26 90.739 3.729 11.883 7.505 23.919 11.115 36.211 8.175 0 16.448-0.478 24.683-0.956 18.761-1.079 37.333-2.15 54.118 2.453 16.004 4.335 30.234 14.554 44.489 24.785 6.319 4.54 12.646 9.079 19.132 13.116-6.293 3.383-12.471 7.279-18.65 11.17-13.914 8.764-27.819 17.527-42.991 20.471-20.053 3.908-41.169 2.961-60.753 2.082-8.004-0.358-15.748-0.704-23.061-0.704-19.273 91.802-7.787 164.596 71.010 218.629 8.303 5.73 9.263 21.224 10.223 36.689 0.444 7.153 0.883 14.3 2.052 20.471-6.652-0.758-14.481-0.765-22.31-0.773-16.717-0.016-33.412-0.031-38.537-7.357-59.396-84.175-145.719-86.426-237.982-80.423-50.291 3.252-101.372 4.378-151.398-0.25-85.531-7.88-158.787 4.878-213.432 76.421-6.5 8.554-24.238 9.386-41.979 10.217-8.198 0.384-16.398 0.768-23.489 1.915 1.714-6.656 2.673-14.303 3.633-21.952 2.070-16.498 4.14-33.005 13.79-39.585 80.515-55.033 82.627-128.954 66.524-214.001-8.545 0-17.174 0.384-25.796 0.768-20.014 0.896-39.993 1.788-58.812-2.146-15.212-3.123-29.088-11.981-42.953-20.826-6.106-3.895-12.209-7.791-18.423-11.191 6.443-3.968 12.739-8.461 19.037-12.958 14.346-10.236 28.704-20.48 44.848-24.567 17.926-4.506 37.436-3.486 57.564-2.436 8.921 0.465 17.964 0.939 27.043 0.939 1.373-9.152 2.018-17.809 2.623-25.933 1.198-16.081 2.238-30.059 8.465-41.609 29.962-55.535 2.64-90.931-36.826-129.203-16.899-16.358-28.362-37.632-39.813-58.884z" />
<glyph unicode="&#xe902;" glyph-name="ar" d="M180.148 874.667h94.815v-47.407h-94.815c-26.182 0-47.407-21.225-47.407-47.407v-71.111h-47.407v71.111c0 52.365 42.45 94.815 94.815 94.815zM749.039 874.667v-47.407h94.814c26.18 0 47.407-21.225 47.407-47.407v-71.111h47.407v71.111c0 52.365-42.449 94.815-94.814 94.815h-94.814zM749.039 68.74h94.814c26.18 0 47.407 21.227 47.407 47.407v71.113h47.407v-71.113c0-52.365-42.449-94.814-94.814-94.814h-94.814v47.407zM132.741 116.147v71.113h-47.407v-71.113c0-52.365 42.45-94.814 94.815-94.814h94.815v47.407h-94.815c-26.182 0-47.407 21.227-47.407 47.407zM729.161 574.384l-212.181 122.505-212.186-122.505 212.186-106.092 212.181 106.092zM735.287 553.961l-207.808-103.904v-251.273l207.808 119.979v235.198zM506.475 450.057v-251.273l-207.808 119.979v235.198l207.808-103.904z" />
<glyph unicode="&#xe903;" glyph-name="architecture" d="M128 874.667h177.231v-401.57h-177.231v401.57zM128 422.899h177.231v-401.566h-177.231v401.566zM659.691 724.078h-295.386v-702.744h295.386v702.744zM718.767 874.667h177.233v-552.158h-177.233v552.158zM896 272.316h-177.233v-250.982h177.233v250.982z" />
<glyph unicode="&#xe904;" glyph-name="art" d="M138.341 435.657c60.961-74.138 115.162-143.305 173.868-209.045 14.707-16.465 43.17-26.85 67.008-31.049 120.259-21.103 218.461 12.595 292.232 106.513 18.266 23.313 44.949 40.772 70.447 63.313-38.067 45.85-74.005 88.943-109.585 132.254-23.599 28.727-48.981 26.189-75.43 4.642-34.035-27.844-67.601-56.128-106.027-88.060-26.212 26.295-51.118 51.157-78.396 78.447 78.277 69.056 142.912 154.465 268.749 132.477 17.673-3.094 39.731-8.397 49.929-20.109 70.686-80.88 138.645-163.858 200.081-237.224-92.036-90.159-179.563-177.446-269.581-262.524-12.928-12.156-37.952-17.788-57.519-18.231-82.782-1.988-165.805-2.761-248.588 0.444-21.704 0.883-44.712 14.916-63.213 27.951-15.181 10.607-22.415 30.498-36.529 42.982-83.139 73.476-102.827 163.635-77.446 277.218zM141.775 498.739c92.864 92.038 181.577 180.982 272.189 268.159 10.437 10.055 30.956 14.033 47.203 15.027 35.341 2.21 71.991-4.309 106.385 1.547 138.999 23.866 232.102-25.744 304.094-137.892 43.998-68.504 14.822-133.802 15.415-205.072-54.199 65.967-109.943 130.822-161.89 198.222-20.873 27.070-44.476 32.484-78.157 36.793-119.787 15.248-214.669-16.905-286.659-108.943-18.265-23.424-44.713-41.212-70.213-64.085 37.359-44.966 73.652-87.838 108.995-131.371 23.601-29.060 48.627-26.517 75.191-4.864 34.039 27.733 67.725 56.021 107.575 88.836 25.617-26.406 49.929-51.49 76.971-79.445-77.449-68.169-141.372-154.133-267.447-132.143-17.79 3.093-40.325 8.064-50.524 19.776-71.042 81.101-139.355 164.079-199.13 235.456z" />
<glyph unicode="&#xe905;" glyph-name="carat" d="M512 177.779l369.506 426.665h-739.010l369.504-426.665z" />
<glyph unicode="&#xe906;" glyph-name="charecters" d="M501.67 651.326c-2.765 4.024-5.538 8.064-9.331 9.527-58.095 22.596-84.721 65.662-73.829 124.811 10.221 55.826 47.068 87.328 107.582 88.923 59.708 1.728 99.785-24.723 113.502-81.081 14.929-61.807-9.818-107.266-70.199-132.52-3.627-1.471-6.033-5.676-8.418-9.845-1.007-1.762-2.010-3.517-3.102-5.057l81.997-2.785c2.487-1.196 5.009-2.425 7.526-3.654 2.526-1.23 5.047-2.46 7.535-3.657 9.101-9.296 18.266-18.539 27.435-27.783 23.339-23.535 46.682-47.075 68.988-71.507 11.601-13.080 21.615-27.425 31.603-41.74 4.834-6.925 9.66-13.841 14.656-20.599 3.785-6.268 8.179-12.442 12.578-18.615 10.146-14.246 20.301-28.501 22.925-43.989 2.705-16.307-1.766-33.698-6.238-51.115-1.984-7.71-3.964-15.428-5.329-23.053-7.317 1.89-15.582 3.025-23.842 4.16-17.839 2.449-35.661 4.894-43.934 14.98-29.218 35.401-54.72 73.92-80.205 112.405-9.822 14.835-19.639 29.662-29.666 44.305-2.88-0.862-5.794-1.724-8.713-2.586-2.923-0.862-5.875-1.732-8.768-2.598 1.783-8.119 3.093-16.482 4.407-24.845 2.935-18.743 5.875-37.495 14.148-53.577 16.704-32.23 36.075-63.138 55.45-94.050 10.108-16.128 20.22-32.256 29.948-48.572 38.191-64.201 31.334-76.826-41.152-77.76-12.241-0.179-24.482-0.111-35.516-0.051-5.086 0.026-9.92 0.051-14.374 0.051-3.405-16.781-6.259-33.574-9.088-50.214-7.45-43.849-14.72-86.635-31.39-125.367-6.455-14.891-66.974-14.49-100.864-9.173-73.248 11.277-69.611 52.693-65.69 97.31 2.684 30.579 5.504 62.665-16.207 87.582-2.258 0-5.377 0.030-9.146 0.068-11.714 0.119-29.705 0.299-47.606-0.205-55.271-1.327-62.263 22.997-36.309 65.532 8.154 13.376 16.419 26.684 24.681 39.991 23.349 37.606 46.677 75.183 67.438 114.061 8.414 15.812 12.186 34.133 15.954 52.425 1.711 8.311 3.422 16.61 5.564 24.67-3.093 1.395-6.153 2.79-9.212 4.186-3.061 1.395-6.12 2.79-9.213 4.186-9.584-13.986-19.144-27.998-28.704-42.014-21.958-32.188-43.945-64.414-66.238-96.354-1.227-1.762-2.454-3.55-3.686-5.342-19.291-28.079-39.833-57.975-81.037-31.744-43.571 27.648-21.919 59.682-0.671 90.522 6.924 9.984 12.675 20.745 18.432 31.514 2.518 4.71 5.037 9.425 7.656 14.076l136.228 158.97c7.8 3.19 15.465 6.38 23.265 9.703 13.641 0.399 27.311 0.83 40.986 1.262l0.064 0.002c13.598 0.429 27.2 0.859 40.764 1.255-1.263 1.518-2.449 3.246-3.635 4.977z" />
<glyph unicode="&#xe907;" glyph-name="clock" d="M548.932 626.306v-178.826l124.036-124.028c14.118-14.114 14.11-36.996 0-51.119-14.11-14.118-36.996-14.118-51.115 0l-134.626 134.613c-7.505 7.509-10.893 17.489-10.415 27.315-0.013 0.256-0.047 0.503-0.081 0.751-0.043 0.303-0.085 0.606-0.085 0.922v190.372c0 19.967 16.179 36.148 36.147 36.148 19.959 0 36.139-16.18 36.139-36.148zM85.333 448c0 235.268 191.399 426.667 426.667 426.667s426.667-191.399 426.667-426.667c0-235.268-191.398-426.667-426.667-426.667s-426.667 191.398-426.667 426.667zM178.594 448c0-183.846 149.561-333.406 333.406-333.406s333.406 149.559 333.406 333.406c0 183.836-149.559 333.406-333.406 333.406-183.845 0-333.406-149.571-333.406-333.406z" />
<glyph unicode="&#xe908;" glyph-name="close" d="M605.986 448.030l319.049 319.061c8.777 8.783 13.619 20.501 13.632 32.995 0 12.502-4.843 24.233-13.632 33.003l-27.959 27.952c-8.789 8.804-20.506 13.626-33.015 13.626-12.489 0-24.205-4.822-32.998-13.626l-319.049-319.043-319.062 319.043c-8.776 8.804-20.501 13.626-33.003 13.626-12.488 0-24.212-4.822-32.989-13.626l-27.973-27.952c-18.205-18.205-18.205-47.814 0-65.998l319.057-319.061-319.057-319.053c-8.783-8.798-13.619-20.514-13.619-33.007 0-12.497 4.836-24.213 13.619-33.003l27.966-27.951c8.776-8.798 20.508-13.628 32.989-13.628 12.502 0 24.226 4.83 33.002 13.628l319.065 319.049 319.049-319.049c8.789-8.798 20.506-13.628 32.994-13.628h0.013c12.497 0 24.213 4.83 33.003 13.628l27.959 27.951c8.777 8.781 13.619 20.506 13.619 33.003 0 12.493-4.843 24.209-13.619 33.003l-319.040 319.057z" />
<glyph unicode="&#xe909;" glyph-name="edit" d="M481.702 814.070h-277.459c-65.672 0-118.91-53.238-118.91-118.911v-554.914c0-65.673 53.238-118.912 118.91-118.912h554.916c65.673 0 118.912 53.239 118.912 118.912v277.457h-79.275v-277.457c0-21.892-17.745-39.637-39.637-39.637h-554.916c-21.891 0-39.636 17.745-39.636 39.637v554.914c0 21.891 17.746 39.637 39.636 39.637h277.459v79.274zM881.434 708.207l42.752 41.043c15.791 15.16 16.303 40.252 1.143 56.043l-54.899 57.187c-15.159 15.792-40.252 16.304-56.043 1.144l-45.086-43.284 112.132-112.133zM740.702 792.884l-375.859-360.824 112.132-112.132 375.859 360.823-112.132 112.133zM341.629 399.219l102.758-102.754-160.869-57.131 58.111 159.885z" />
<glyph unicode="&#xe90a;" glyph-name="fashion" d="M896.371 440.585c-11.665-120.218-23.467-240.576-37.12-380.975-15.906 22.861-35.524 37.956-35.921 53.619-1.856 77.466 3.311 154.931 1.984 232.397-0.397 25.677-12.855 51.076-19.883 76.617-25.318-14.959-59.255-23.424-74.368-45.999-40.695-60.817-77.286-125.862-108.305-192.887-38.707-83.529-89.745-132.915-184.393-126.566-94.518 6.49-189.964-0.986-284.746 3.106-24.127 1.126-62.040 18.483-67.21 36.826-5.7 20.459 12.197 60.39 31.153 74.359 61.509 45.436 121.692 93.833 208.389 43.319 31.284-18.202 97.832-8.465 126.332 16.789 68.139 60.254 123.149 137.293 183.467 207.561 69.726 131.225 139.588 262.308 209.186 393.25 75.955-50.796 111.885-158.739 84.706-271.479-9.677-40.214-22.135-79.864-33.271-119.936z" />
<glyph unicode="&#xe90b;" glyph-name="food" d="M366.844 745.517c211.405-78.219 359.347-230.475 441.553-450.84 5.555 1.988 10.825 3.836 15.872 5.606 13.431 4.715 25.297 8.875 36.877 13.679 90.108 36.548 93.99 45.18 50.743 131.622-84.612 169.252-208.862 300.472-375.010 390.020-119.025 64.059-136.297 56.236-174.186-75.523-0.308-1.085 0.136-2.348 1.128-5.169 0.735-2.089 1.77-5.034 3.023-9.395zM743.595 270.69c-74.035 203.776-207.65 338.904-416.244 411.594-19.431-47.45-38.71-94.394-57.836-140.966-60.998-148.532-120.445-293.283-178.339-438.662-6.473-16.166-6.055-35.017-5.636-53.875 0.196-8.832 0.392-17.673-0.12-26.231 8.499 0.299 17.278-0.132 26.056-0.559 19.015-0.926 38.019-1.856 54.141 4.604 151.586 60.454 302.292 123.072 452.957 185.668 25.788 10.714 51.571 21.427 77.363 32.128 10.487 4.425 20.373 10.3 31.066 16.657 5.278 3.136 10.752 6.391 16.593 9.643zM460.365 365.427c-4.885 0.239-9.775 0.474-14.665 0.742-4.454 7.701-10.244 15.629-16.043 23.561-13.188 18.052-26.405 36.143-23.987 51.695 2.614 17.301 19.747 32.311 36.872 47.313 7.433 6.507 14.861 13.018 21.103 19.712 6.345-7.33 13.828-14.464 21.308-21.594 17.289-16.482 34.556-32.943 37.734-51.772 2.313-13.905-13.124-30.908-28.578-47.927-6.882-7.578-13.764-15.159-19.085-22.468-4.885 0.269-9.771 0.503-14.66 0.738zM545.596 281.045c11.076-10.859 23.642-23.172 37.875-35.034-14.383-9.536-26.893-19.383-37.986-28.117-21.547-16.96-37.756-29.717-51.985-27.849-23.296 3.234-62.387 42.884-58.773 57.852 6.558 26.974 36.817 60.284 62.793 66.219 11.55 2.731 27.166-12.574 48.077-33.071zM296.96 256.397c-4.654-0.102-9.307-0.205-13.927-0.273-5.418 7.39-12.509 15.104-19.593 22.81-15.677 17.058-31.322 34.078-28.741 47.454 3.755 18.914 21.661 34.974 39.551 51.017 7.625 6.839 15.247 13.675 21.769 20.727 6.237-6.81 13.662-13.453 21.086-20.092 17.119-15.305 34.231-30.609 36.753-48.009 2.229-15.155-11.778-32.713-25.797-50.287-6.19-7.757-12.382-15.522-17.18-23.078-4.618-0.068-9.27-0.171-13.922-0.269z" />
<glyph unicode="&#xe90c;" glyph-name="full-screen" d="M341.333 874.667h-128c-70.692 0-128-57.308-128-128v-128h85.333v128c0 23.564 19.102 42.667 42.667 42.667h128v85.333zM853.333 618.667v128c0 23.564-19.102 42.667-42.667 42.667h-128v85.333h128c70.694 0 128-57.308 128-128v-128h-85.333zM682.667 106.667h128c23.565 0 42.667 19.102 42.667 42.667v128h85.333v-128c0-70.694-57.306-128-128-128h-128v85.333zM170.667 277.333v-128c0-23.565 19.103-42.667 42.667-42.667h128v-85.333h-128c-70.692 0-128 57.306-128 128v128h85.333z" />
<glyph unicode="&#xe90d;" glyph-name="furniture" d="M458.982 127.287c0 80.802 0 156.122 0 238.263-108.121 0-214.889 0-330.982 0 59.195 168.16 114.741 327.492 172.721 486.022 4.055 10.97 26.76 21.539 40.815 21.806 117.041 1.739 234.212 1.739 351.255-0.134 13.376-0.268 34.462-12.576 38.652-24.081 58.112-158.262 113.796-317.324 172.314-482.41-114.607 0-220.023 0-329.493 0 0-80.802 0-157.862 0-239.334 58.522-9.766 115.686-27.157 124.203-106.086-120.691 0-238.946 0-357.201 0 2.433 68.629 22.57 87.36 117.717 105.954z" />
<glyph unicode="&#xe90e;" glyph-name="gadgets" d="M700.203 451.712c0 176.902-5.687 182.763-179.925 182.763h-72.444c-96.769-0.134-126.118-28.907-126.779-124.284-0.088-13.235-0.059-26.534-0.029-39.808 0.015-6.63 0.029-13.257 0.029-19.87 0-185.024 4.232-189.423 187.195-189.423 189.705 0 191.953 2.266 191.953 190.622zM412.67 548.955h197.37v-203.41h-197.37v203.41zM583.987 95.398h84.471c0.892-5.346 1.271-10.692 1.634-15.77 0.713-9.975 1.344-18.901 5.641-24.725 10.441-13.722 27.362-31.437 41.114-31.040 14.012 0.401 34.5 17.852 40.051 32.503 27.234 71.134 74.825 117.756 145.549 144.397 15.202 5.73 31.198 26.112 33.975 41.963 1.847 10.79-16.789 28.638-30.012 37.564-7.945 5.431-18.415 6.916-28.971 8.418-4.719 0.67-9.455 1.344-13.99 2.372v96.043c31.727 23.578 53.406 39.697 75.217 55.949-21.581 20.305-43.29 40.482-74.812 69.781l-1.596 1.485v91.913c3.947 0.622 8.149 0.856 12.318 1.089 9.233 0.516 18.3 1.023 24.038 5.704 15.467 12.522 34.236 29.040 37.009 46.223 1.719 10.524-21.675 31.304-37.67 37.432-68.348 26.375-112.107 74.73-140.395 141.334-6.345 15.052-26.833 35.433-38.336 33.968-16.26-2.131-32.124-20.647-44.288-35.433-4.834-5.792-5.892-14.629-6.95-23.49-0.474-3.979-0.951-7.962-1.771-11.677h-85.397c-17.57 18.929-31.821 34.211-44.753 48.078-8.179 8.773-15.829 16.98-23.462 25.187l-1.003-0.991c-21.611-21.385-43.345-42.887-73.024-72.141h-82.226c-0.959 2.548-1.717 5.009-2.435 7.341-1.459 4.737-2.752 8.937-5.233 12.241-10.965 14.556-22.519 28.688-34.059 42.802-2.928 3.581-5.856 7.162-8.772 10.748-4.365-5.319-8.624-10.758-12.886-16.201-9.935-12.689-19.89-25.403-31.268-36.682-42.303-41.827-85.531-82.589-129.155-122.952-5.725-5.309-12.4-9.874-19.030-14.409-10.671-7.298-21.225-14.515-27.503-24.621-4.098-6.527 11.369-31.437 23.399-40.362 8.865-6.539 20.89-8.876 33.715-11.367 5.726-1.113 11.612-2.257 17.446-3.819v-91.648c-19.901-17.788-35.239-31.561-48.922-43.844-8.039-7.219-15.506-13.922-22.992-20.629 21.812-18.65 43.492-37.163 72.178-61.542v-94.046c-5.607-1.523-11.29-2.641-16.845-3.733-12.388-2.436-24.14-4.745-32.993-11.183-12.294-8.926-24.458-26.377-25.251-40.764-0.661-10.923 14.412-29.171 26.31-33.434 78.26-27.84 131.268-78.195 156.253-159.185 3.173-10.257 23.927-22.114 35.56-21.047 14.542 1.199 31.728 12.122 40.585 24.243 5.444 7.497 6.342 18.381 7.309 30.114 0.442 5.363 0.899 10.901 1.812 16.375h87.514c16.896-17.711 30.665-32.098 43.098-45.090 9.263-9.677 17.783-18.581 26.304-27.507l73.502 74.065zM567.671 181.103c-18.893-0.094-37.781-0.188-56.657-0.188-19.661-0.043-39.326 0.119-58.987 0.282-41.929 0.341-83.839 0.687-125.688-0.947-57.241-2.129-78.526 24.243-77.733 79.927 1.586 126.281 1.19 252.698 0.133 378.977-0.529 52.617 20.889 76.861 74.692 76.195 125.455-1.598 250.776-1.598 376.096 0 54.199 0.8 74.82-24.643 74.423-76.595-0.794-128.547-0.529-257.093-0.132-385.639 0.132-48.887-20.753-73.796-71.518-72.597-44.843 1.028-89.749 0.806-134.63 0.585z" />
<glyph unicode="&#xe90f;" glyph-name="help" d="M512 116.147c-183.277 0-331.852 148.578-331.852 331.853 0 183.277 148.575 331.852 331.852 331.852 183.275 0 331.853-148.575 331.853-331.852 0-183.275-148.578-331.853-331.853-331.853zM512 21.333c235.639 0 426.667 191.027 426.667 426.667 0 235.642-191.027 426.667-426.667 426.667-235.642 0-426.667-191.025-426.667-426.667 0-235.639 191.025-426.667 426.667-426.667zM519.189 198.14c25.182 0 45.594 19.823 45.594 44.271s-20.412 44.271-45.594 44.271c-25.182 0-45.594-19.823-45.594-44.271s20.412-44.271 45.594-44.271zM519.198 685.13c-80.444 0-145.893-63.551-145.893-141.665 0-19.561 16.329-35.416 36.474-35.416 20.143 0 36.472 15.855 36.472 35.416 0 39.057 32.725 70.832 72.947 70.832 40.226 0 72.947-31.775 72.947-70.832 0-39.055-32.721-70.833-72.947-70.833-20.143 0-36.471-15.855-36.471-35.413v-88.542c0-19.558 16.329-35.418 36.471-35.418 20.147 0 36.476 15.859 36.476 35.418v57.604c62.857 15.765 109.419 71.296 109.419 137.184 0 78.114-65.446 141.665-145.894 141.665z" />
<glyph unicode="&#xe910;" glyph-name="history" d="M85.333 610.604c5.103 4.871 9.926 10.394 14.753 15.921 10.546 12.076 21.11 24.172 34.647 29.535 113.761 44.855 228.811 87.305 344.379 128.071 19.345 6.854 46.174 6.975 65.523 0.12 115.695-40.646 230.613-83.096 344.375-127.951 13.641-5.368 24.299-17.371 34.901-29.31 4.838-5.446 9.664-10.881 14.754-15.665-72.973-51.204-146.675-49.745-218.871-48.317-13.431 0.266-26.807 0.531-40.119 0.455-20.958-0.118-41.92-0.276-62.886-0.436-86.259-0.654-172.57-1.309-258.793 0.916-60.167 1.588-120.271 5.967-180.4 10.347-26.362 1.92-52.728 3.841-79.107 5.527-4.364 10.291-8.728 20.463-13.091 30.634l-0.065 0.151zM368.312 539.785h121.757c0-22.691-0.073-45.219-0.145-67.619-0.218-66.624-0.431-132.147 1.306-197.662 0.265-10.031 7.403-19.895 14.532-29.739 3.294-4.557 6.592-9.109 9.203-13.675 2.035 4.476 4.595 8.943 7.155 13.41 5.555 9.685 11.11 19.366 11.285 29.158 1.271 66.517 1.135 133.030 0.994 200.806-0.043 21.547-0.090 43.234-0.090 65.079h121.758c0-22.638-0.077-45.251-0.154-67.848-0.222-65.254-0.444-130.368 1.186-195.392 0.265-10.419 6.891-20.672 13.534-30.946 3.093-4.783 6.191-9.574 8.649-14.387 2.24 4.898 5.060 9.796 7.881 14.694 6.11 10.624 12.237 21.265 12.501 31.962 1.51 62.844 1.289 125.747 1.062 190.093-0.081 23.445-0.162 47.087-0.162 70.982h115.695v-288.732c21.568-15.936 38.643-28.51 54.835-40.427l12.877-9.481-0.137-0.265c-2.79-5.312-5.585-10.65-8.375-15.846h-721.898c-1.295 1.246-2.605 2.496-3.919 3.746-2.612 2.487-5.243 4.996-7.817 7.556 10.747 9.609 21.452 19.217 33.603 30.123 9.131 8.196 19.105 17.148 30.5 27.358v285.726h118.015c0-19.017-0.186-38.204-0.373-57.515-0.455-46.993-0.917-94.703 1.277-142.349 1.161-24.994 6.78-49.813 12.396-74.62 2.49-10.999 4.98-21.999 7.081-33.007 35.061 20.463 30.256 48.841 25.537 76.706-1.964 11.601-3.914 23.113-2.966 33.929 3.794 45.653 2.968 91.661 2.133 138.189-0.357 19.895-0.716 39.889-0.716 59.99zM170.596 158.673c-64.103 0.845-88.611-18.035-72.36-80.448h827.669c16.768 63.492-9.156 81.293-72.747 80.448-227.52-2.884-455.041-3.004-682.563 0z" />
<glyph unicode="&#xe911;" glyph-name="like" d="M712 832c-46.306 0-88.759-14.882-126.178-44.233-35.874-28.139-59.759-63.98-73.822-90.042-14.063 26.064-37.948 61.903-73.822 90.042-37.42 29.352-79.873 44.233-126.178 44.233-129.22 0-226.667-107.197-226.667-249.352 0-153.575 121.572-258.65 305.615-417.716 31.253-27.017 66.677-57.634 103.499-90.291 4.851-4.309 11.085-6.682 17.553-6.682s12.702 2.372 17.553 6.682c36.826 32.661 72.247 63.279 103.518 90.308 184.026 159.049 305.596 264.124 305.596 417.699 0 142.154-97.446 249.352-226.667 249.352z" />
<glyph unicode="&#xe912;" glyph-name="music" d="M849.254 204.894c-14.899-2.534-33.749 0.141-43.904-8.734-46.541-40.58-88.068-88.205-136.589-125.406-23.599-18.176-64.602-24.798-66.052 28.463-2.769 102.575-0.789 205.436-0.789 335.488 65.655-37.338 119.71-59.46 163.482-95.812 41.399-34.381 52.476-30.153 60.651 22.963 36.518 237.985-203.435 426.793-429.678 337.039-164.408-65.097-239.295-218.396-185.371-383.674 64.207 36.774 128.415 73.69 204.489 117.372 0-137.101 0-248.836 0-376.35-73.832 23.953-137.117 48.61-183.393 111.735-10.811 14.793-26.896 34.099-41.531 35.226-62.889 4.506-81.478 46.639-94.267 103.701-53.792 240.379 95.718 473.149 329.475 516.969 157.157 29.449 288.208-22.826 405.682-129.629 93.606-118.78 132.237-251.088 90.445-404.952-11.87-42.411-28.877-75.52-72.649-84.399z" />
<glyph unicode="&#xe913;" glyph-name="nature" d="M717.222 411.597c-50.278-23.381-100.416-46.635-157.269-73.058 0-46.242 0-101.598 0-166.997 115.622 74.91 223.71 144.934 333.444 216.145 55.484-228.958-121.651-387.234-298.236-364.113-51.375 6.737-105.212 6.076-156.86 0.132-156.311-18.231-311.663 100.407-310.293 291.051 0.137 21.666 0 43.337 0 80.858 120.144-77.555 229.876-148.369 345.911-223.279 0 59.981 0 115.076 0 168.051-50.962 23.121-103.020 46.771-155.215 70.549-116.035 135.025-121.239 282.996-7.123 445.631 30.139-40.031 58.77-78.213 89.457-119.037 47.401 55.885 80.007 94.331 116.308 137.137 36.715-43.202 69.594-81.648 108.774-127.625 30.959 35.539 60.962 70.154 91.102 104.768 119.458-119.83 116.582-305.849 0-440.213z" />
<glyph unicode="&#xe914;" glyph-name="news" d="M566.161 352.491h-265.904v276.829h265.904v-276.829zM502.515 413.201v156.528h-140.46v-156.528h140.46zM562.048 296.542h-256.279c-5.402-6.298-10.804-12.591-16.075-18.743 4.579-4.117 9.094-9.225 13.605-14.323 9.895-11.187 19.771-22.353 30.27-23.027 41.954-2.692 84.127-2.389 126.305-2.086 23.522 0.171 47.066 0.337 70.554-0.013 43.878-0.559 45.193 22.242 31.62 58.193zM828.087 518.537c15.565-59.802-15.697-58.065-44.685-56.457-5.12 0.286-10.167 0.567-14.874 0.503-151.787-1.818-151.791-1.399-152.58 55.945l212.139 0.009zM826.522 296.657h-205.696c-5.252-6.686-10.372-13.513-15.488-20.339l-0.064-0.081c4.77-3.964 9.446-8.841 14.123-13.713 10.185-10.615 20.365-21.227 31.471-22.379 31.445-3.136 63.236-2.624 95.066-2.112 16.452 0.265 32.922 0.533 49.357 0.294 46.251-0.7 40.457 26.018 31.232 58.33zM620.826 632.385h205.696c9.225-32.313 15.019-59.031-31.232-58.331-16.435 0.239-32.9-0.027-49.357-0.292-31.829-0.513-63.62-1.025-95.066 2.11-11.106 1.15-21.286 11.762-31.471 22.379-4.676 4.874-9.353 9.75-14.123 13.711l0.064 0.082c5.116 6.827 10.236 13.653 15.488 20.341zM826.893 408.738h-205.807c-4.433-5.645-8.768-11.294-13.171-17.024-0.832-1.084-1.668-2.167-2.505-3.26 4.612-3.947 9.169-8.781 13.726-13.623 10.15-10.773 20.331-21.589 31.33-22.746 31.125-3.196 62.583-2.697 94.084-2.197 16.777 0.265 33.566 0.529 50.325 0.239 46.246-0.841 40.845 25.737 32.017 58.611zM85.475 689.315h97.374l3.581 14.908c2.95 12.265 6.11 25.401 10.124 42.444h741.98v-133.169c0-36.571-0.021-73.154-0.043-109.741v-0.060c-0.055-91.58-0.107-183.202 0.175-274.739 0.132-61.129-26.615-100.855-84.855-101.414-228.224-2.099-456.577-1.822-684.929-0.141-50.071 0.418-83.143 29.235-83.275 86.865-0.367 108.625-0.286 217.25-0.204 328.434 0.036 48.318 0.072 97.119 0.072 146.613zM375.063 186.91h0.078c153.226-0.162 304.288-0.32 455.345 1.903 15.415 0.277 43.482 25.737 43.746 39.863 2.483 118.161 2.287 236.407 2.086 354.874v0.131c-0.055 32.256-0.111 64.528-0.111 96.82h-621.281v-493.511c40.218 0 80.251-0.038 120.137-0.081zM164.423 187.511c3.395-0.606 6.774-1.207 10.127-1.779 1.71 4.164 3.882 8.324 6.057 12.493 4.695 8.998 9.4 18.014 9.49 27.093 1.186 123.098 1.318 246.195-0.132 369.295-0.090 8.023-6.139 15.916-12.191 23.812-2.811 3.668-5.623 7.337-7.838 11.019-2.339-4.224-5.264-8.449-8.193-12.678-6.478-9.353-12.97-18.728-13.152-28.169-1.844-97.501-1.45-195.139-0.791-292.637 0.264-23.71 1.467-47.356 2.669-70.985 0.599-11.78 1.198-23.552 1.68-35.328 4.088-0.683 8.207-1.417 12.273-2.138z" />
<glyph unicode="&#xe915;" glyph-name="people" d="M504.444 502.805c-11.878-30.946-24.418-61.76-35.635-92.962-27.588-76.459-59.664-99.925-139.654-100.958-115.232-1.677-155.755 19.341-184.794 97.604-18.611 50.155-35.903 100.826-53.327 151.37-13.596 39.325-4.355 63.308 43.823 60.6 78.537-4.513 160.507 3.868 234.688-15.73 104.276-27.592 200.634-15.215 302.663 4.771 74.052 14.57 152.457 8.509 229.013 9.928 37.884 0.774 43.298-21.403 32.606-51.961-19.802-56.602-38.016-113.72-59.401-169.81-32.998-86.255-108.634-87.415-185.847-87.287-68.902 0.128-111.275 31.074-131.998 94.251-11.089 33.655-24.286 66.662-36.429 99.925-5.282 0-10.428 0.132-15.71 0.26z" />
<glyph unicode="&#xe916;" glyph-name="quick-read" d="M85.333 796.407c0 25.372 25.811 42.579 49.231 32.82l377.436-157.265 377.438 157.265c23.42 9.758 49.229-7.449 49.229-32.82v-527.407c0-14.353-8.631-27.302-21.879-32.819l-404.787-168.661-404.786 168.661c-13.25 5.517-21.88 18.466-21.88 32.819v527.407zM198.607 652.911c-9.116 3.646-19.462-0.788-23.109-9.904s0.788-19.462 9.903-23.109l177.778-71.111c9.116-3.646 19.462 0.788 23.109 9.904s-0.788 19.462-9.904 23.109l-177.777 71.111zM198.607 510.69c-9.116 3.644-19.462-0.789-23.109-9.903-3.647-9.118 0.788-19.465 9.903-23.113l177.778-71.108c9.116-3.648 19.462 0.785 23.109 9.903s-0.788 19.46-9.904 23.108l-177.777 71.113zM175.499 358.562c3.646 9.118 13.993 13.551 23.109 9.903l177.777-71.108c9.116-3.648 13.551-13.995 9.904-23.108-3.646-9.118-13.993-13.551-23.109-9.907l-177.778 71.113c-9.116 3.648-13.55 13.995-9.903 23.108zM829.265 707.517l-210.598-307.692h114.871l-76.582-225.643 210.598 307.695h-110.306l72.017 225.639z" />
<glyph unicode="&#xe917;" glyph-name="reply" d="M383.012 819.757c16.324-16.324 16.324-42.791 0-59.116l-179.447-179.447 179.447-179.449c16.324-16.324 16.324-42.79 0-59.115s-42.791-16.324-59.116 0l-238.563 238.563 238.563 238.563c16.324 16.324 42.791 16.324 59.116 0zM102.647 581.194c0 23.086 18.715 41.801 41.801 41.801h334.409c253.948 0 459.81-205.865 459.81-459.812v-41.801c0-23.087-18.714-41.801-41.801-41.801s-41.801 18.714-41.801 41.801v41.801c0 207.774-168.435 376.21-376.209 376.21h-334.409c-23.086 0-41.801 18.715-41.801 41.801z" />
<glyph unicode="&#xe918;" glyph-name="report" d="M198.031 384.23v-362.897h-70.031v770.346h19.321c0.34 0.311 190.947 174.937 385.172 16.639 0 0 62.865-89.701 179.746-57.169s205.427 114.337 205.427 114.337v-444.486c0 0-194.398-189.577-385.173-70.029-16.892 10.586-31.561 20.715-45.103 30.067-44.096 30.451-76.281 52.681-134.644 55.68-50.144 2.577-112.045-27.302-154.714-52.489z" />
<glyph unicode="&#xe919;" glyph-name="reports" d="M399.218 647.111c-14.68-41.385-54.199-71.112-100.551-71.112s-85.874 29.727-100.551 71.112h-112.782v71.111h112.782c14.677 41.385 54.199 71.111 100.551 71.111s85.874-29.727 100.551-71.111h539.449v-71.111h-539.449zM334.222 682.666c0 19.605-15.95 35.556-35.555 35.556s-35.555-15.951-35.555-35.556c0-19.605 15.95-35.555 35.555-35.555s35.555 15.95 35.555 35.555zM725.333 362.654c46.353 0 85.871 29.726 100.553 71.113h112.781v71.108h-112.781c-14.677 41.385-54.199 71.113-100.553 71.113s-85.875-29.727-100.553-71.113h-539.447v-71.108h539.447c14.677-41.387 54.199-71.113 100.553-71.113zM725.333 504.875c19.605 0 35.554-15.949 35.554-35.554s-15.949-35.554-35.554-35.554c-19.605 0-35.554 15.949-35.554 35.554s15.949 35.554 35.554 35.554zM938.667 220.446v71.108h-539.449c-14.677 41.387-54.199 71.113-100.551 71.113s-85.874-29.726-100.551-71.113h-112.782v-71.108h112.782c14.677-41.387 54.199-71.113 100.551-71.113s85.871 29.726 100.551 71.113h539.449zM298.667 220.446c-19.605 0-35.555 15.945-35.555 35.554 0 19.605 15.95 35.554 35.555 35.554s35.555-15.949 35.555-35.554c0-19.61-15.95-35.554-35.555-35.554z" />
<glyph unicode="&#xe91a;" glyph-name="search" d="M329.687 310.874c-112.39 135.185-105.204 336.245 21.559 463.008 134.383 134.381 352.256 134.381 486.634 0 134.383-134.381 134.383-352.253 0-486.636-126.763-126.763-327.821-133.948-463.005-21.559l-244.353-244.352-45.188 45.188 244.353 244.352zM399.909 725.217c-107.505-107.505-107.505-281.804 0-389.307 107.505-107.507 281.802-107.507 389.309 0 107.503 107.503 107.503 281.802 0 389.307-107.507 107.505-281.805 107.505-389.309 0z" />
<glyph unicode="&#xe91b;" glyph-name="share" d="M928.713 488.486l-308.151 332.186c-10.052 10.877-25.459 14.265-38.874 8.66-13.461-5.659-22.281-19.194-22.281-34.252v-159.948h-11.849c-254.863 0-462.225-215.258-462.225-479.826v-73.822c0-17.122 11.615-31.394 27.683-35.277 2.604-0.64 5.217-0.994 7.821-0.994 13.464 0 26.311 8.175 32.474 20.971 66.658 138.441 200.678 224.461 349.776 224.461h56.32v-159.94c0-15.057 8.819-28.595 22.281-34.253 13.316-5.568 28.821-2.214 38.874 8.661l308.151 332.186c13.274 14.276 13.274 36.911 0 51.187z" />
<glyph unicode="&#xe91c;" glyph-name="theator-screen" d="M282.256 704h-98.461c-54.379 0-98.461-44.083-98.461-98.461v-328.205c0-54.379 44.083-98.462 98.461-98.462h98.461v65.643h-98.461c-18.126 0-32.82 14.694-32.82 32.819v328.205c0 18.126 14.694 32.82 32.82 32.82h98.461v65.641zM741.743 244.514h98.462c18.125 0 32.819 14.694 32.819 32.819v328.205c0 18.126-14.694 32.82-32.819 32.82h-98.462v65.641h98.462c54.379 0 98.462-44.083 98.462-98.461v-328.205c0-54.379-44.083-98.462-98.462-98.462h-98.462v65.643z" />
<glyph unicode="&#xe91d;" glyph-name="travel" d="M867.285 481.084c-1.626-17.732-10.974-39.539-3.524-52.676 19.102-34.15 45.513-64.363 74.906-104.034-34.402-13.137-63.117-29.158-93.73-34.807-52.011-9.459-71.518-34.812-64.337-85.385 3.925-27.584 0.678-56.218 0.678-97.728-58.112 15.236-108.092 28.373-165.794 43.61-28.309-37.043-59.866-78.025-98.876-128.73-37.658 45.973-70.165 85.513-105.382 128.597-50.522-13.79-102.534-27.977-161.184-44.002 0 58.586 0 106.133 0 159.334-50.929 17.865-100.097 35.204-159.153 55.957 26.277 37.043 53.097 68.305 71.382 103.774 7.991 15.501-1.222 39.407-2.711 59.503-21.672 32.316-43.344 64.497-74.226 110.603 141.003 6.437 194.644 75.005 154.686 211.485 68.673-19.047 119.195-33.233 171.885-47.814 16.661 21.542 33.050 42.297 49.033 63.183 53.773 70.801 53.773 70.801 109.035-3.153 14.494-19.309 29.397-38.356 46.191-60.030 51.068 14.186 101.453 28.241 160.644 44.793 4.198-58.979-9.212-121.374 16.525-157.234 24.107-33.496 89.937-38.882 143.983-59.11-25.195-38.225-47.543-72.117-70.029-106.135zM784.934 480.427c-24.789 153.949-130.982 243.403-283.904 239.069-135.991-3.81-243.404-104.297-255.052-238.936-14.222-164.855 102.537-291.878 268.599-291.878 164.706-0.128 282.005 126.366 270.357 291.746z" />
<glyph unicode="&#xe91e;" glyph-name="user" d="M724.331 677.744c0-108.758-88.166-196.925-196.924-196.925s-196.923 88.167-196.923 196.925c0 108.757 88.166 196.923 196.923 196.923s196.924-88.166 196.924-196.923zM886.818 224.043c94.694-81.557 7.428-202.709-117.547-202.709h-483.724c-124.975 0-212.24 121.152-117.545 202.709 89.644 77.21 217.495 125.495 359.408 125.495 141.909 0 269.76-48.286 359.407-125.495z" />
<glyph unicode="&#xe91f;" glyph-name="vehicles" d="M883.345 261.858c2.219-55.561-6.532-104.747-76.271-111.753-59.029-5.99-80.708 21.79-98.074 122.581-130.991 0-262.498 0-393.486 0-17.108-100.919-38.786-128.572-98.207-122.453-69.738 7.134-78.228 56.448-76.138 111.876-6.53-1.783-13.060-3.439-19.59-5.222-10.709 28.796-26.119 56.96-30.951 86.775-5.355 33.131-9.010 70.084 1.046 100.919 10.056 30.963 33.17 73.907 59.028 80.533 45.186 11.596 49.235 37.973 57.462 70.466 48.19 191.902 50.802 193.559 252.050 193.559 67.388 0 134.775 0.509 202.163-0.128 67.648-0.765 110.093-32.493 128.111-95.313 8.23-28.543 14.626-57.469 22.332-86.139 10.057-37.081 10.057-75.818 67.127-85.504 22.199-3.823 45.316-47.91 52.89-77.474 9.143-35.934 6.007-76.326 0.917-113.916-3.268-23.957-19.985-46.255-30.562-69.193-6.528 0.128-13.188 0.256-19.849 0.384zM711.087 535.82c-28.467 147.431-28.467 147.431-171.469 147.431-17.37 0-34.739 0-52.109 0-143.263 0-143.394 0-173.169-134.051-0.784-3.568 1.307-7.645 2.482-13.252 129.813-0.127 259.754-0.128 394.265-0.128zM311.859 405.589c-40.615 28.164-65.951 59.255-86.715 56.452-22.463-2.931-55.895-37.338-56.157-58.236-0.131-20.13 34.608-54.409 56.809-56.704 21.156-2.035 45.709 29.308 86.063 58.487zM797.803 316.139c29.385 41.284 60.075 65.498 58.249 86.775-2.091 22.43-35.392 42.18-54.98 62.95-20.506-20.134-54.72-38.485-57.724-60.911-3.004-21.026 26.769-46.511 54.455-88.815z" />
<glyph unicode="&#xe920;" glyph-name="video" d="M938.667 734.476c0 30.297-30.767 54.857-68.723 54.857h-715.885c-37.956 0-68.725-24.56-68.725-54.857v-530.287c0-30.298 30.769-54.857 68.725-54.857h715.885c37.956 0 68.723 24.559 68.723 54.857v530.287zM345.915 720.762h123.133v-77.714h-123.133v77.714zM260.009 217.903h-88.77v77.717h88.77v-77.717zM260.009 643.048h-88.77v77.714h88.77v-77.714zM469.047 217.903h-123.133v77.717h123.133v-77.717zM437.547 405.999v126.669c0 18.857 16.806 25.833 36.57 15.505l115.221-60.049c19.763-10.33 19.921-27.234 0.158-37.564l-115.46-60.062c-19.763-10.334-36.489-3.354-36.489 15.501zM678.084 217.903h-123.132v77.717h123.132v-77.717zM678.084 643.048h-123.132v77.714h123.132v-77.714zM852.762 217.903h-88.772v77.717h88.772v-77.717zM852.762 643.048h-88.772v77.714h88.772v-77.714z" />
<glyph unicode="&#xe921;" glyph-name="view" d="M511.991 605.917c-75.767 0-137.328-63.086-137.328-140.73s61.56-140.732 137.328-140.732c75.767 0 137.331 63.087 137.331 140.732s-61.564 140.73-137.331 140.73zM501.577 530.214c0-12.864-11.729-22.997-21.082-31.829-0.926-0.879-1.805-1.809-2.624-2.795-7.962-9.527-17.617-20.698-30.033-20.698-12.608 0-23.052 10.56-19.379 22.626 7.582 24.922 26.432 44.535 50.206 52.334 12.224 4.010 22.912-6.775 22.912-19.638zM928.721 494.323c-46.409 59.203-212.147 252.343-416.721 252.343-204.573 0-370.315-193.14-416.722-252.343-13.259-16.499-13.259-40.764 0-58.236 46.408-59.204 212.15-252.343 416.722-252.343 204.574 0 370.313 193.139 416.721 252.343 13.261 16.499 13.261 40.764 0 58.236zM512 261.389c-109.863 0-198.89 91.234-198.89 203.819 0 112.582 89.027 203.815 198.89 203.815s198.891-91.232 198.891-203.815c0-112.585-89.028-203.819-198.891-203.819z" />
<glyph unicode="&#xe922;" glyph-name="sports" d="M487.014 957.391c-55.884-215.68-298.102-453.656-485.725-477.081-17.715 253.647 266.214 508.262 485.725 477.081zM1022.834 510.214c-288.603-100.005-474.456-292.262-570.925-573.697-234.168 17.448-426.141 206.956-451.909 448.006 282.321 97.256 476.065 285.311 571.728 572.24 215.324 8.401 443.534-216.327 451.106-446.549zM540.312-62.669c43.163 204.692 286.676 446.544 483.165 479.986 13.687-247.186-242.386-501.798-483.165-479.986z" />
</font>
</defs>
</svg>
